Skip to main content

Goosepimp Orchestra Live at The Palladium on 2013-12-31

Audio Preview

etree
Goosepimp Orchestra Live at The Palladium on 2013-12-31




*** This is a 24 bit recording, not intended for CD Burning ***

Goosepimp Orchestra
2013-12-31
The Palladium
Worcester, MA

DPA 4011 > V3 Digital > R44 (24/96)
SDHC Card > Sound Forge Pro 10.0 (Normalize, fades) > CD Wav (tracking) > TLH > Flac (level 8)
DIN/ROC (right of FOH)/approx. 7' high
Tags added in Foobar2000

Taped and Transferred by Brian V.

01. Kalimotxo
02. El Bassment
03. Kensho
04. Pranksta's Paradise
05. Feelin Good *
06. Flashbacks
07. Crumpkin
08. Roses (Outkast)


Collection GoosepimpOrchestra
Band/Artist Goosepimp Orchestra
Venue The Palladium
Location Worcester, MA

Source DPA 4011 > V3 Digital > R44 (24/96)
Lineage SDHC Card > Sound Forge Pro 10.0 (Normalize, fades) > CD Wav (tracking) > TLH > Flac (level 8)
Taped by Brian V.
Transferred by Brian V.

Notes

* - ft. Anna Custodio (Bassnectar x Nina Simone)

***Support Bands That Allow Taping/Trading***

shntool output
length expanded size cdr WAVE problems fmt ratio filename
4:14.520 146603564 B cxx -- ---xx flac 0.5465 goosepimp20013-12-31s1t01.flac
4:42.893 162946604 B cxx -- ---xx flac 0.5501 goosepimp20013-12-31s1t02.flac
6:56.587 239953964 B cxx -- ---xx flac 0.5481 goosepimp20013-12-31s1t03.flac
9:24.160 324956204 B cxx -- ---xx flac 0.5365 goosepimp20013-12-31s1t04.flac
4:08.000 142848044 B cxx -- ---xx flac 0.5366 goosepimp20013-12-31s1t05.flac
13:34.307 469040684 B cxx -- ---xx flac 0.5476 goosepimp20013-12-31s1t06.flac
14:55.800 515980844 B cxx -- ---xx flac 0.5524 goosepimp20013-12-31s1t07.flac
6:00.107 207421484 B cxx -- ---xx flac 0.5670 goosepimp20013-12-31s1t08.flac
63:56.373 2209751392 B 0.5483 (8 files)

comment
Reviews

There are no reviews yet. Be the first one to write a review.
SIMILAR ITEMS (based on metadata)
eye
Title
Date Archived
Creator
Goosepimp Orchestra
by Goosepimp Orchestra
etree
eye 61
favorite 0
comment 0
Source: DPA 4011 > V3 Digital > R44 (24/96)
Goosepimp Orchestra
by Goosepimp Orchestra
etree
eye 97
favorite 0
comment 0
Source: Schoeps MK41/MK22>Sonosax SX-R4
Goosepimp Orchestra
by Goosepimp Orchestra
etree
eye 85
favorite 0
comment 0
Source: Schoeps MK41>Sonosax SX-R4
Goosepimp Orchestra
by Goosepimp Orchestra
etree
eye 65
favorite 0
comment 0
Source: Schoeps MK41/MK22>Sonosax SX-R4
Goosepimp Orchestra
by Goosepimp Orchestra
etree
eye 185
favorite 0
comment 0
Source: Schoeps MK22>KC5>CMC6>Sonosax SX-M2>Apogee Mini-me(aes out,24bit/96khz)>COAX>Edirol R-44
Goosepimp Orchestra
by Goosepimp Orchestra
etree
eye 38
favorite 0
comment 0
Source: Schoeps MK22/MK41>Sonosax SX-R4 + Soundboard>SX-R4
Goosepimp Orchestra
by Goosepimp Orchestra
etree
eye 33
favorite 0
comment 0
Source: akg 463 > oade acm marantz 671 > WAV (24/48k)
Goosepimp Orchestra
by Goosepimp Orchestra
etree
eye 73
favorite 0
comment 0
Source: source1: JZ BT-201 (cardiod) > Oade Transparent Mod Edirol R4 > WAV (24/48k), source2: sbd > Edirol R4 > WAV (24/48k)
Goosepimp Orchestra
by Goosepimp Orchestra
etree
eye 44
favorite 1
comment 0
Source: akg481 + SBD>Busman R4@2444
Goosepimp Orchestra
by Goosepimp Orchestra
etree
eye 83
favorite 0
comment 0
Source: Schoeps MK41>KC5>CMC6>Sonosax SX-M2>Apogee Mini-me(aes out,24bit/96khz)>COAX>Edirol R-44